&title=[宴] オトヒメモリー☆ウタゲーション
&artist=Junky
&wholebpm=140
&demo_seek=42.7
&demo_len=14.3
&lv_7=協
&inote_7=(140.0){1},,
{4},,,6b/7b/2b$/3b$,
{16}7,,7,6,,6,7,,5/8,,5/8,,5h[1:1]/8h[1:1],,,,
{16}2$,,2$,3$,,3$,2$,,4$/1-4[8:1],,,,1$,,,,
{16}5/7/1$/4$,,5/7,,5/1$/2$,6,5,6,3^8[8:1]/4p8[8:1],,,,,,,,
{16}5/7/1$/4$,,5/7,,5/1$/3$,6,5,6,3^8[8:1]/4p8[8:1],,,,,,,,
{16}5/7/1$/4$,,5/7,,5/2$/3$,6,5,6,3^8[8:1]/4p8[8:1],,,,,,,,
{16}7/3$/4h[4:1],,7/1$,6,3h[4:1],6,7/1$,,5/8/4h[4:1]/8-5[8:1],,1$,,3$,,,,
{16}5/8/2$/4$,,2$/4$,,7/8/4$,3$,4$,3$,5/6/5q1[8:1]/6^1[8:1],,,,,,,,
{16}5/8/2$/4$,,2$/4$,,6/8/4$,3$,4$,3$,5/6/5q1[8:1]/6^1[8:1],,,,,,,,
{16}5/8/2$/4$,,2$/4$,,6/8/4$,3$,4$,3$,5/6/5q1[8:1]/6^1[8:1],,,,,,,,
{16}6/2$/5h[4:1],,8/2$,3$,6h[4:1],3$,8/2$,,5/1$/4$,,,,5/4$,,,,
{16}6/7/4^2[8:1],,,8,8,,7,,6/3^1[8:1],,5,,,,5,5h[16:5],
{16}4^2[8:1],,7,,7,,6,5,6/3^1[8:1],,5/7,5/7,,,,,
{16}8h[4:1]/4^2[8:1],,,7,7,,6,,5/3^1[8:1],,5/6,,,,5/7,,
{16}4^2[8:1],,8,,8,,6,7,6/3^1[8:1],,5/8,5/8,,,,,
{16}5/1h[4:1]/5^7[8:1],,,2$,2$,,3$,,6/4h[16:3]/6^8[8:1],,,3$,,,4$,3$,
{16}5/4$/5^7[8:1],,1$,2$,1$,,2$/3$,,6/1$/4$/6^8[8:1],,1$/4$,1$/4$,,,2$,3$,
{8}5/2h[4:1]/5^7[8:1],,3h[4:1],,6/2$/6^8[8:1],1$/4$,,1$,
{16}5/1$/2$/5^7[8:1],,4$,,3$/4$,,2$,,6/2$/3$/6^8[8:1],,1$/4$,1$/4$,,,,,
{8}1h[8:3]/2h[8:3]/7h[8:3]/8h[8:3],,,,7/8/1$/2$,,,5/6/3$/4$,
{8}3h[8:3]/4h[8:3]/5h[8:3]/6h[8:3],,,,5/6/3$/4$,,,5/8/1$/4$,
{1}1h[2:1]/4h[2:1]/5h[2:1]/8h[2:1],
{4}7b/2b$,,5/4$,8/1-3[8:1]*-4[8:1],
{4}8/1b$/8-5[8:1]*-6[8:1],8/1-3[8:1]*-4[8:1],8/1b$,7b/8b/1b$/2b$,
{16}6/3$,,6/3$,,7/8,1$/2$,7/8,1$/2$,7/8,,5/4$,,7/2$,,,,
{2}5/4-1[8:1]*-2[8:1]/5-7[8:1]*-8[8:1],5/4-1[8:1]*-2[8:1]/5-7[8:1]*-8[8:1],
{4}5/4$,6/3$,7/2$,8/1$/8-5[8:1]*-6[8:1],
{4}8/1-3[8:1]*-4[8:1],8/1b$/8-5[8:1]*-6[8:1],8/1$,7b/8b/1b$/2b$,
{16}6/3$,,1$/2$,7/8,1$/2$,7/8,1$/2$,7/8,1$/2$,,,,5/6/5v8[8:1],,,,
{4}7,3$/4v1[8:1],2$,5/6/6-8[8:1],
{4}5/4$/3-1[8:1],5/6/4$/6-8[8:1],5/3$/4$,8/1-3[8:1]*-4[8:1],
{4}8/1b$/8-5[8:1]*-6[8:1],8/1-3[8:1]*-4[8:1],8/1b$,7b/8b/1b$/2b$,
{2}5/1^4[8:1]/5^8[8:1],5/1^4[8:1]/5^8[8:1],
{2}5/4-1[8:1]*-2[8:1]/5-7[8:1]*-8[8:1],5/4-1[8:1]*-2[8:1]/5-7[8:1]*-8[8:1],
{4}5/4$,6/3$,7/2$,8/1$/8-5[8:1]*-6[8:1],
{4}8/1-3[8:1]*-4[8:1],8/1b$/8-5[8:1]*-6[8:1],8/1$,7b/8b/1b$/2b$,
{16}6/3$,,1$/2$,7/8,1$/2$,,5/6/3$/4$,,5/6/3$/4$,,,,5/6/5v8[8:1],,,,
{4}7,3$/4v1[8:1],2$,5/4$,
{4}6h[4:1]/7h[4:1],2h[4:1]/3h[4:1],6h[4:1]/7h[4:1],2h[4:1]/3h[4:1],
{16}7,,7,6,,6,7,7,5/8,,5/8,,5h[1:1]/8h[1:1],,,,
{16}2$,,2$,3$,,3$,2$,2$,4$/1-4[8:1],,,,1$,,,,
{2}6/2h[4:7]/4h[4:7]/8h[4:7]/6-3[8:1],6/6-3[8:1],
{4}6/6-3[8:1],,6,6,
{2}1h[4:7]/5h[4:7]/7h[4:7]/3-6[8:1],3-6[8:1],
{4}3-6[8:1],,3$,3$,
{4}6/2$/4h[4:7]/8h[4:7]/6-3[8:1],2-7[8:1],6/6-3[8:1],2-7[8:1],
{4}6/6-3[8:1],2-7[8:1],6,6/2$,
{4}1h[4:7]/5h[4:7]/3-6[8:1],7/7-2[8:1],3-6[8:1],7/7-2[8:1],
{4}3-6[8:1],7/7-2[8:1],3$,7b/3b$,
{1}5h[4:7]/8h[4:7]/1v7[2:1]/4v6[2:1],
{1}1v7[2:1]/4v6[2:1],
{1}5/8/1h[4:7]/4h[4:7]/5v3[2:1]/8v2[2:1],
{1}5/8/5v3[2:1]/8v2[2:1],
{2}7h[629:1946],8h[16:41],
{2}1h[1246:2531],2h[2:3],{1},
{4},,,5/4-1[8:1]*-2[8:1],
{4}5/4b$/5-7[8:1]*-8[8:1],5/4-1[8:1]*-2[8:1],5/4b$,7b/8b/1b$/2b$,
{16}5/6,3$/4$,5/6,3$/4$,6/7,2$/3$,6/7,1$/2$,7/8,,5/4$,,7/2$,,,,
{2}5/4-1[8:1]*-2[8:1]/5-7[8:1]*-8[8:1],5/4-1[8:1]*-2[8:1]/5-7[8:1]*-8[8:1],
{4}5/4$,6/3$,7/2$,5/4$/5-7[8:1]*-8[8:1],
{4}5/4-1[8:1]*-2[8:1],5/4b$/5-7[8:1]*-8[8:1],5/4$,7b/8b/1b$/2b$,
{16}6/3$,,3$/4$,5/6,3$/4$,,6/8/1$/3$,,6/8/1$/3$,,,,5/6/5v8[8:1],,,,
{4}7,3$/4v1[8:1],2$,5/6/6-8[8:1],
{4}5/4$/3-1[8:1],5/6/4$/6-8[8:1],5/3$/4$,5/4-1[8:1]*-2[8:1],
{4}5/4b$/5-7[8:1]*-8[8:1],5/4-1[8:1]*-2[8:1],5/4b$,7b/8b/1b$/2b$,
{2}5/1^4[8:1]/5^8[8:1],5/1^4[8:1]/5^8[8:1],
{2}5/4-1[8:1]*-2[8:1]/5-7[8:1]*-8[8:1],5/4-1[8:1]*-2[8:1]/5-7[8:1]*-8[8:1],
{4}5/4$,6/3$,7/2$,5/4$/5-7[8:1]*-8[8:1],
{4}5/4-1[8:1]*-2[8:1],5/4b$/5-7[8:1]*-8[8:1],5/4$,7b/8b/1b$/2b$,
{16}6/3$,,2$/4$,5/7,2$/4$,,7/8/1$/2$,,5/6/3$/4$,,,,5/6/5v8[8:1],,,,
{4}7,3$/4v1[8:1],2$,5/4$,
{4}6h[4:1]/7h[4:1],2h[4:1]/3h[4:1],6h[4:1]/7h[4:1],2h[4:1]/3h[4:1],
{16}7,,7,6,,6,7,7,5/8,,5/8,,5h[1:1]/8h[1:1],,,,
{16}2$,,2$,3$,,3$,2$,2$,4$/1-4[8:1],,,,1$,,,,
{16}7b/8b/1b$/2b$,,,,4$,5,3$,6,2$,7,1$,8,1-5[8:1],,,,
{4}8/8-4[8:1],,8/1^4[8:1]/8^5[8:1],8b/1b$,
{1}6b/7b/2b$/3b$,
E
